piodech
» » Randy Vanwarmer - The Things That You Dream
Randy Vanwarmer - The Things That You Dream Album

Randy Vanwarmer - The Things That You Dream Album

  • Darsteller: Randy Vanwarmer
  • Genre: Rock / Pop
  • Titel: The Things That You Dream
  • Freigegeben: 21 Apr 1995
  • Stil: Soft Rock
  • Etikett: Bearsville
  • Katalog: PCCY-00740
  • Land: Japan
  • Größe der MP3-Version: 2653 mb
  • Größe der FLAC-Version: 1802 mb
  • Bewertung: 4.1
  • Abstimmungen: 935

Trackliste

1Gonna Build Me A Rocket3:55
2Do You Believe In Magic2:33
3The Things That You Dream3:31
4Color Me Out4:00
5Shadows Of The Night3:14
6Hester's Song4:59
7At Least It's A Life3:30
8I'm Still In Love3:11
9Only What You Steal4:19
10What In The World Comes Over You At Night4:50

Versionen

CategoryArtistTitle (Format)LabelCategoryCountryYear
1.23746Randy Vanwarmer The Things That You Dream ‎(LP, Album)Bearsville1.23746Sweden1983
25AP 2527Randy Vanwarmer The Things That You Dream ‎(LP, Album)Bearsville25AP 2527Japan1983
66 006Randy Vanwarmer The Things That You Dream ‎(LP, Album)Carrere66 006France1983
1.23746Randy Vanwarmer The Things That You Dream ‎(LP, Album)Bearsville1.23746US1983
810 722-1Randy Vanwarmer The Things That You Dream ‎(LP, Album)Bearsville810 722-11983

Hinweise

with seperate bi lingual lyric booklet

Barcodes

  • Rights Society: JASRAC

Unternehmen

  • Manufactured By – Pony Canyon Inc.

Video

Album

Listen free to Randy VanWarmer The Things That You Dream The Things That You Dream, At Least It's A Life and more. 10 tracks 38:02. Do you know any background info about this album Start the wiki. Randy VanWarmer March 30, 1955 January 12, 2004 was an American songwriter and guitarist. His biggest success was the pop hit, Just When I Needed You Most. It reached 8 in read more. Randy VanWarmer Sings Stephen Foster. Things That You Dream. Your Rating. Overview . Randy VanWarmer: все альбомы, включая The Things That You Dream , Just When I Needed You Most , Terraform и другие. At Least It's a Life - Randy VanWarmer. Лента с персональными рекомендациями и музыкальными новинками, радио, подборки на любой вкус, удобное управление своей. Randy VanWarmer sometimes Vanwarmer, Van Warmer March 30, 1955 January 12, 2004 was an American singer-songwriter and guitarist. It reached No. 8 on the UK Singles Chart in September 1979 after peaking at No. 4 on the Billboard Hot 100 and No. 1 on Billboard Hot Adult Contemporary Tracks earlier that year. The song appeared on his 1981 album Beat of Love, which also included the pop tune Suzi Found a Weapon, which hit No. 55 on the Billboard Hot 100. 1 Career. The Things That You Dream 1983. I Am 1988. Every Now and Then 1990. Writer: Average - Randy VanWarmer. Gonna Build Me a Rocket. Randy VanWarmer. The Things That You Dream. Writer: Randy VanWarmer. Only What You Steal. Play jigsaw puzzles for free Home. The Things That You Dream, 2013. Gonna Build Me a Rocket, 04:00. Only What You Steal, 04:20. Color Me Out, 04:02. Hester's Song, 04:59. Now playing . Discover all of this album's music connections, watch videos, listen to music, discuss and download. Album by Randy VanWarmer. Do You Believe in Magic. is a cover of. Do You Believe in Magic by The Lovin' Spoonful 1965. Provided to YouTube by Warner Music Group - X5 Music Group The Things That You Dream Randy VanWarmer Just When I Needed You Most 2017 Warner Music Group

Kommentare

LeXXXuS LeXXXuS
foobar2000 1.3.17 / Dynamic Range Meter 1.1.1
log date: 2019-01-15 20:16:03

--------------------------------------------------------------------------------
Analyzed: Randy VanWarmer / The Things That You Dream [JP 1995 CD]
--------------------------------------------------------------------------------

DR Peak RMS Duration Track
--------------------------------------------------------------------------------
DR12 -1.49 dB -16.21 dB 3:31 01-The Things That You Dream
DR12 -0.69 dB -14.50 dB 3:37 02-At Least It's A Life
DR12 -1.34 dB -15.32 dB 4:52 03-What In The World Comes Over You At Night
DR12 -2.71 dB -17.77 dB 4:01 04-Gonna Build Me A Rocket
DR11 -1.25 dB -15.19 dB 2:39 05-Do You Believe In Magic
DR12 -1.82 dB -16.40 dB 4:21 06-Only What You Steal
DR13 -2.68 dB -18.41 dB 4:02 07-Color Me Out
DR11 -2.82 dB -15.86 dB 3:16 08-Shadows Of The Night
DR12 -1.87 dB -16.44 dB 3:14 09-I'm Still In Love
DR12 -2.37 dB -15.99 dB 5:01 10-Hester's Song
--------------------------------------------------------------------------------

Number of tracks: 10
Official DR value: DR12

Samplerate: 44100 Hz
Channels: 2
Bits per sample: 16
Bitrate: 977 kbps
Codec: ALAC
================================================================================